#TITLE:Kinato Ymir;
#SUBTITLE:Expi3nze;
#ARTIST:SDO;
#TITLETRANSLIT:;
#SUBTITLETRANSLIT:;
#ARTISTTRANSLIT:;
#CREDIT:;
#BANNER:bn.png;
#BACKGROUND:bg.png;
#LYRICSPATH:;
#CDTITLE:cdtitle.png;
#MUSIC:Kinato Ymir.mp3;
#OFFSET:0.000;
#SAMPLESTART:37.059;
#SAMPLELENGTH:22.588;
#SELECTABLE:YES;
#BPMS:0.000=170.002,5.000=169.992,6.000=170.002,9.000=85.001,11.000=84.998,12.000=85.001,14.000=84.998,15.000=85.001,17.000=84.998,18.000=85.001,20.000=84.998,21.000=85.001,23.000=84.998,24.000=85.001,25.000=170.002,30.000=169.992,31.000=170.002,36.000=169.992,37.000=170.002,41.000=169.992,42.000=170.002,47.000=169.992,48.000=170.002,52.000=169.992,53.000=170.002,58.000=169.992,59.000=170.002,64.000=169.992,65.000=170.002,69.000=169.992,70.000=170.002,75.000=169.992,76.000=170.002,81.000=169.992,82.000=170.002,86.000=169.992,87.000=170.002,92.000=169.992,93.000=170.002,98.000=169.992,99.000=170.002,103.000=169.992,104.000=170.002,108.000=169.992,109.000=170.002,114.000=169.992,115.000=170.002,120.000=169.992,121.000=170.002,125.000=169.992,126.000=170.002,131.000=169.992,132.000=170.002,137.000=169.992,138.000=170.002,142.000=169.992,143.000=170.002,148.000=169.992,149.000=170.002,153.000=85.001,155.000=84.998,156.000=85.001,157.000=170.002,161.000=85.001,163.000=84.998,164.000=85.001,166.000=84.998,167.000=85.001,169.000=84.998,170.000=85.001,171.000=84.998,172.000=85.001,174.000=84.998,175.000=85.001,177.000=84.998,178.000=85.001,180.000=84.998,181.000=85.001,183.000=84.998,184.000=85.001,185.000=84.998,186.000=85.001,188.000=84.998,189.000=85.001,191.000=84.998,192.000=85.001,193.000=170.002,197.000=85.001,199.000=170.002,203.000=85.001,205.000=170.002,209.000=85.001,211.000=170.002,215.000=85.001,217.000=170.002,221.000=169.992,222.000=170.002,226.000=169.992,227.000=170.002,232.000=169.992,233.000=170.002,238.000=169.992,239.000=170.002,243.000=340.024,244.000=339.983,245.000=340.024,246.000=339.983,247.000=85.001,249.000=170.002,253.000=169.992,254.000=170.002,258.000=169.992,259.000=170.002,264.000=169.992,265.000=170.002,270.000=169.992,271.000=170.002,275.000=169.992,276.000=170.002,281.000=169.992,282.000=170.002,286.000=169.992,287.000=170.002,292.000=169.992,293.000=170.002,298.000=169.992,299.000=170.002,303.000=169.992,304.000=170.002,309.000=169.992,310.000=170.002,315.000=169.992,316.000=170.002,320.000=169.992,321.000=170.002,326.000=169.992,327.000=170.002,332.000=169.992,333.000=170.002,337.000=169.992,338.000=170.002,343.000=169.992,344.000=170.002,348.000=169.992,349.000=170.002,354.000=169.992,355.000=170.002,360.000=169.992,361.000=170.002,365.000=169.992,366.000=170.002,371.000=169.992,372.000=170.002,376.000=169.992,377.000=170.002,382.000=169.992,383.000=170.002,388.000=169.992,389.000=170.002,393.000=169.992,394.000=170.002,399.000=169.992,400.000=170.002;
#STOPS:;
#BGCHANGES:;
// cache tags:
#FIRSTBEAT:9.000;
#LASTBEAT:392.250;
#SONGFILENAME:Songs/Super Dancer Online/Kinato Ymir/Kinato Ymir.sm;
#HASMUSIC:1;
#HASBANNER:1;
#MUSICLENGTH:162.792;
// end cache tags

//---------------dance-single - ----------------
#NOTES:
     dance-single:
     :
     Hard:
     27:
     1.000,1.000,1.000,1.000,1.000,1086.000,219.000,338.000,0.000,4.000:
0000
0000
0000
0000
,
0000
0000
0000
0000
,
0000
0000
0000
0000
1000
0100
0010
0100
1000
0100
0010
0001
0010
0100
0010
0001
,
0010
0100
1000
0100
0010
0100
1000
0100
0010
0001
0010
0100
0010
0001
0010
0100
,
1000
0100
0010
0100
1000
0100
0010
0001
0010
0100
0010
0001
0010
0100
1000
0100
,
0010
0100
1000
0100
0010
0001
0010
0100
1000
0100
0010
0001
1100
0000
0011
1100
,
0000
1100
0011
1100
1100
0000
0010
0000
0102
0003
1010
0000
0100
0000
1010
0000
,
0102
0003
0010
0000
0101
0000
0010
0000
1200
0300
0011
0000
0100
0000
1000
0000
,
0210
0300
1001
0000
0110
0000
0001
0000
1200
0300
0011
0000
0101
0000
0010
0000
,
1200
0300
0011
0000
1100
0000
0010
0000
1002
0003
0110
0000
1000
0000
0110
0000
,
1002
0003
0110
0000
1100
0000
0010
0000
2001
3000
0110
0000
0001
0000
0110
0000
,
2001
3000
0100
0000
0011
0000
0100
0000
2010
3000
0101
0000
0010
0000
0101
0000
,
2010
3000
0100
0000
0011
0000
0100
0000
2001
3000
0110
0000
1000
0000
0101
0000
,
2010
3000
0001
0000
1100
0000
0010
0000
0012
0003
0100
0010
0101
0000
1010
0000
,
0001
0010
0100
1000
0012
0000
0100
0000
1000
0000
0100
0000
0010
0000
0100
0000
,
1000
0100
0010
0100
1000
0100
0010
0100
,
1000
0100
0010
0100
1000
0100
0010
0100
,
1000
0000
0000
0100
0000
0003
1020
0000
0000
0100
0000
0000
0001
0000
0000
0100
0000
0030
1200
0000
0000
0010
0000
0000
,
0001
0000
0000
0010
0000
0300
2001
0000
0000
0010
0000
0000
0100
0000
0000
0010
0000
0000
0001
0000
0000
0010
0000
0000
,
0100
0010
0001
0010
0100
0010
0001
0010
,
0100
0010
0001
0010
0100
0010
0001
0010
,
0100
0000
0000
0000
0000
0000
0010
0000
0000
0000
3000
0000
0100
0000
0000
0000
0000
0000
0100
0000
0000
0000
0000
0000
0000
0000
0000
0000
0000
0000
0100
0000
0000
0010
0000
0000
0001
0000
0000
0010
0000
0000
0100
0000
0000
0010
0000
0000
,
0100
0000
1000
0000
0100
0000
0010
0000
0001
0000
0001
0000
2020
3030
0100
0000
1000
0000
0100
0000
0022
0033
0100
0000
2002
3003
0100
0000
0010
0000
0100
0000
,
2002
3003
0010
0000
2200
3300
0010
0000
0001
0000
0010
0000
2002
3003
0010
0000
0100
0000
1000
0000
0220
0330
0001
0000
2020
3030
0100
0000
0010
0000
0001
0000
,
0220
0330
1000
0000
0202
0303
0010
0000
0100
0000
1000
0000
0202
0303
0010
0000
0100
0000
1000
0000
0220
0330
0001
0000
2020
3030
0100
0000
0010
0000
0100
0000
,
2002
3003
0010
0000
2200
3300
0010
0000
0001
0000
0010
0000
2002
3003
0100
0000
0010
0000
0001
0000
0220
0330
1000
0000
0202
0303
0010
0000
0100
0000
1000
0000
,
0202
0303
0010
0000
2200
3300
0010
0000
2002
3003
0100
0000
2020
3030
0001
0000
0010
0000
0100
0000
0022
0033
0100
0000
2002
3003
0100
0000
0010
0000
0001
0000
,
2020
3030
0100
0000
0022
0033
0100
0000
1000
0000
0100
0000
2020
3030
0001
0000
0010
0000
0100
0000
0022
0033
0100
0000
2002
3003
0100
0000
0010
0000
0001
0000
,
2020
3030
0001
0000
0220
0330
0001
0000
0010
0000
0100
0000
2002
3003
0010
0000
0100
0000
0010
0000
2200
3300
0010
0000
2002
3003
0010
0000
0100
0000
0010
0000
,
2002
3003
0010
0000
2200
3300
0010
0000
0001
0000
0010
0000
2002
3003
0010
0000
0100
0000
1000
0000
0220
0330
0001
0000
2020
3030
0100
0000
0010
0000
0001
0000
,
2020
3030
0100
0000
0022
0033
0100
0000
1000
0000
0100
0000
0010
0000
0100
0000
1000
0000
0100
0000
0010
0000
0001
0000
0010
0000
0100
0000
1000
0000
0100
0000
,
1000
0100
0010
0001
0010
0001
0010
0100
1000
0100
0010
0001
0010
0100
1000
0100
,
1000
0100
0010
0001
0010
0001
0010
0100
1000
0100
0010
0001
0010
0100
1000
0100
,
0010
0001
0010
0100
0010
0100
1000
0100
0010
0100
0010
0001
0010
0100
1000
0100
,
0010
0001
0010
0100
0010
0001
0010
0100
1000
0100
0010
0100
1000
0100
0010
0001
,
0010
0100
0010
0001
0010
0100
1000
0100
0010
0100
1000
0100
0010
0001
0010
0100
,
0010
0001
0010
0100
1000
0100
0010
0100
1000
0100
0010
0001
0010
0100
0010
0100
,
1000
0100
0010
0100
0010
0001
2000
0000
0100
0000
0010
0000
0000
0001
0000
0000
,
0010
0100
3010
0000
0000
0000
0000
0000
,
0000
0000
0000
0000
0000
0000
0002
0000
0000
0000
0000
0000
0000
0000
0000
0000
0000
0003
0200
0000
0000
0000
0000
0000
,
0000
0000
0000
0000
0000
0000
0000
0000
0000
0000
0000
0000
0000
0000
0000
0000
0000
0000
0000
0000
0300
0000
0000
0000
1000
0000
0000
0000
0000
0000
0200
0000
0000
0300
0000
0000
0020
0000
0000
0030
0000
0000
0002
0000
0000
0003
0000
0000
0200
0000
0000
0300
0000
0000
0020
0000
0000
0030
0000
0000
0002
0000
0000
0003
0000
0000
0020
0000
0000
0030
0000
0000
0100
0000
0000
0000
0000
0000
2000
0000
0000
3000
0000
0000
0200
0000
0000
0300
0000
0000
0020
0000
0000
0030
0000
0000
,
0200
0300
0020
0030
0002
0003
0200
0300
0001
0000
0200
0300
0020
0030
0002
0003
0002
0003
0200
0300
0002
0003
0020
0030
0001
0000
2000
3000
0200
0300
0020
0030
,
2000
3000
0200
0300
0020
0030
2000
3000
0010
0000
0200
0300
0020
0030
0002
0003
0020
0030
0200
0300
2000
3000
0200
0300
0010
0000
0200
0300
0020
0030
0002
0003
,
0020
0030
0200
0300
0020
0030
0200
0300
1000
0000
0200
0300
2000
3000
0200
0300
0020
0030
0002
0003
0020
0030
0002
0003
0010
0000
0200
0300
2000
3000
0200
0300
,
0020
0030
0002
0003
0020
0030
0200
0300
1000
0000
0200
0300
0020
0030
0200
0300
0020
0030
0002
0003
0020
0030
0200
0300
0010
0000
0200
0300
2000
3000
0200
0300
,
0020
0030
0002
0003
0020
0030
0002
0003
0010
0000
0200
0300
2000
3000
0200
0300
2000
3000
0200
0300
0020
0030
0002
0003
0010
0000
0200
0300
0020
0030
0200
0300
,
2000
3000
0200
0300
0020
0030
0002
0003
0010
0000
0002
0003
0020
0030
0200
0300
2000
3000
0200
0300
2000
3000
0200
0300
0010
0000
0002
0003
0020
0030
0200
0300
,
0020
0030
0200
0300
2000
3000
0200
0300
0010
0000
0002
0003
0020
0030
0200
0300
2000
3000
0200
0300
0020
0030
0002
0003
0010
0000
0200
0300
0020
0030
0200
0300
,
2000
3000
0200
0300
0020
0030
0002
0003
1000
0000
0000
0000
1000
0000
0000
0000
1000
0000
0000
0000
1000
0000
0000
0000
0100
0000
0100
0000
0010
0000
0010
0000
,
1000
0000
0000
0000
0001
0000
0001
0000
0200
0300
0020
0030
0002
0003
0020
0030
0200
0300
2000
3000
0200
0300
0020
0030
0001
0000
0000
0000
0001
0000
0000
0000
,
0001
0000
0000
0000
0001
0000
0000
0000
0010
0000
0010
0000
0100
0000
0100
0000
0001
0000
0000
0000
1000
0000
1000
0000
0200
0300
0020
0030
0002
0003
0020
0030
,
0200
0300
2000
3000
0200
0300
0020
0030
0100
0000
0000
0000
0100
0000
0000
0000
0100
0000
0000
0000
0100
0000
0000
0000
0001
0000
0001
0000
1000
0000
1000
0000
,
0010
0000
0000
0000
0100
0000
0100
0000
0020
0030
0002
0003
0020
0030
0200
0300
2000
3000
0200
0300
0020
0030
0002
0003
0010
0000
0000
0000
0010
0000
0000
0000
,
0010
0000
0000
0000
0010
0000
0000
0000
1000
0000
1000
0000
0001
0000
0001
0000
0010
0000
0000
0000
0010
0000
0010
0000
0200
0300
0020
0030
0002
0003
0020
0030
,
0200
0300
2000
3000
0200
0300
0020
0030
1100
0000
0000
0000
0100
0000
0000
0000
0022
0000
0033
0000
1100
0000
0000
0000
0010
0000
0000
0000
1100
0000
0000
0000
,
0022
0033
0100
0000
1100
0000
0100
0000
0022
0033
1100
0000
0010
0000
1100
0000
,
0022
0033
1100
0000
1100
0000
0010
0000
0022
0033
1100
0000
0010
0000
1100
0000
,
0022
0033
0100
0000
1100
0000
0010
0000
0022
0033
1100
0000
0010
0000
1100
0000
,
0022
0033
1100
0000
0110
0000
0011
0000
0110
0000
1100
0000
0110
0000
1100
0000
,
0022
0033
0100
0000
1100
0000
0110
0000
0011
0000
0110
0000
1100
0000
0110
0000
,
0022
0033
0100
0000
1100
0000
0010
0000
0011
0000
0110
0000
2222
0000
3333
0000
,
2222
0000
3333
0000
2222
0000
0000
3333
1111
0000
0000
0000
0000
0000
0000
0000
,
0000
0000
0000
0000
0000
0000
0000
0000
0000
0000
0000
0000
1000
0000
0000
0100
0000
0000
0010
0000
0000
0001
0000
0000
2010
0000
0000
0000
0000
0000
0000
0000
0000
0000
0000
0000
0100
0000
0000
0000
0000
0000
0000
0000
3000
0000
0000
0000
0012
0000
0000
0000
0000
0000
0000
0000
0000
0000
0000
0000
0100
0000
0000
0000
0000
0000
0000
0000
0003
0000
0000
0000
1000
0000
0000
0000
0000
0000
0000
0000
0000
0000
0000
0000
0100
0000
0000
0000
0000
0000
0000
0000
0000
0000
0000
0000
,
0010
0000
0000
0001
0000
0000
0010
0000
0000
0102
0000
0000
1000
0000
0000
0100
0000
0003
0010
0000
0000
0001
0000
0000
,
0010
0000
0000
0100
0000
0000
2001
0000
0000
0100
0000
0000
0010
0000
3000
0201
0000
0000
0010
0000
0000
0001
0000
0300
,
0010
0000
0000
0100
0000
0000
1000
0000
0000
0102
0000
0000
0010
0000
0000
0100
0000
0003
0010
0000
0000
0001
0000
0000
,
0010
0000
0000
0100
0000
0000
2001
0000
0000
0100
0000
0000
0010
0000
3000
0102
0000
0000
1000
0000
0000
0100
0000
0003
,
0010
0000
0000
0001
0000
0000
0010
0000
0000
2100
0000
0000
0010
0000
0000
0001
0000
3000
0010
0000
0000
0100
0000
0000
,
1000
0000
0000
0100
0000
0000
0012
0000
0000
0100
0000
0000
1000
0000
0003
0210
0000
0000
0001
0000
0000
0310
0000
0000
,
0100
0000
1000
0000
0100
0000
2010
0000
0001
0000
3010
0000
1200
0000
0010
0301
,
0010
0000
0101
0000
1100
0000
0100
0000
0022
0033
1100
0000
0010
0000
1100
0000
,
0022
0033
0100
0000
1100
0000
0010
0000
0022
0033
1100
0000
0010
0000
1100
0000
,
0022
0033
0100
0000
0011
0000
0010
0000
2200
3300
0011
0000
0100
0000
0011
0000
,
2200
3300
0010
0000
0011
0000
0100
0000
2200
3300
0011
0000
0100
0000
0011
0000
,
2200
3300
0010
0000
1100
0000
0100
0000
0022
0033
1100
0000
0010
0000
1100
0000
,
0022
0033
0100
0000
1100
0000
0010
0000
0022
0033
1100
0000
0010
0000
1100
0000
,
0022
0033
0100
0000
1000
0000
0100
0000
0010
0000
0100
0000
1000
0000
0100
0000
,
0010
0001
0010
0001
0010
0100
1000
0010
,
2200
3300
0010
0001
1000
0000
0100
0000
0010
0000
0001
0000
0010
0000
0100
0000
,
1000
0000
0100
0010
0001
0010
0001
0010
0100
1000
0100
1000
0100
0010
0001
0010
,
0100
1000
0100
0010
0001
0000
0010
0000
0100
0000
1000
0000
0100
0000
0010
0000
,
0001
0000
0010
0100
1000
0100
1000
0100
0010
0001
0010
0001
0010
0100
1000
0100
,
0010
0001
0010
0100
1000
0000
0100
0000
0010
0000
0001
0000
0010
0000
0100
0000
,
1000
0000
0100
0010
0001
0010
0001
0010
0100
0010
0100
0010
0100
1000
0100
1000
,
0100
0010
0001
0010
0100
0010
0100
1000
0100
0010
0001
0010
0001
0010
0100
0010
,
0001
0010
0100
1000
0100
0010
0001
0010
0100
0010
0001
0010
0100
0010
0001
0010
,
0100
1000
0100
0010
0001
0000
0010
0000
0100
0000
0010
0000
0001
0000
0010
0000
,
0100
0000
1000
0100
1010
0100
0010
0001
0010
0001
1010
0100
1000
0100
0011
0100
,
1020
0030
0100
0000
0011
0000
0100
0000
1001
0000
0000
0000
0010
0000
0000
0000
0102
0003
0000
0000
1010
0000
0000
0000
0001
0000
0000
0000
1010
0000
0000
0000
,
0102
0003
0000
0000
0010
0000
0100
0000
1001
0000
0010
0000
0100
0000
1000
0000
0201
0300
0010
0000
1100
0000
0010
0000
0001
0000
0010
0000
0101
0000
1000
0000
,
0210
0300
0001
0000
1010
0000
0100
0000
0011
0000
0000
0000
0100
0000
0000
0000
1020
0030
0000
0000
0101
0000
0000
0000
0010
0000
0000
0000
1001
0000
0000
0000
,
0120
0030
0000
0000
0001
0000
0000
0000
0110
0000
1000
0000
0100
0000
0010
0000
0102
0003
0010
0000
1100
0000
0010
0000
0001
0000
0010
0000
1100
0000
0010
0000
,
0102
0003
0010
0000
1100
0000
0010
0000
0101
0000
1000
0000
0100
0000
0010
0000
2100
3000
0010
0000
0101
0000
1000
0000
0100
0000
0010
0000
1001
0000
0100
0000
,
2010
3000
0100
0000
0010
0000
0001
0000
0110
0000
1000
0000
0100
0000
0010
0000
1002
0003
0100
0000
0011
0000
0100
0000
1000
0000
0100
0000
1010
0000
0100
0000
,
1002
0003
0010
0000
1100
0000
0011
0000
0100
0000
0000
0000
0010
0000
0000
0000
0002
0000
0003
0000
1000
0000
0000
0000
0100
0000
0000
0000
0010
0000
0000
0000
,
0100
0000
0010
0000
0002
0003
1000
0000
0100
0000
0010
0000
0100
0000
0010
0000
,
0002
0003
1000
0000
0100
0000
0010
0000
0002
0003
1000
0000
0100
0000
0010
0000
,
0100
0000
0010
0000
0002
0003
1000
0000
0100
0000
0010
0000
0100
0000
0010
0000
,
0002
0003
0000
0000
0000
0000
0000
0000
0000
0000
0000
0000
0000
0000
0000
0000
,
0000
0000
0000
0000
,
0000
0000
0000
0000
;
